» » Dick St. Nicklaus - Magic
Dick St. Nicklaus - Magic mp3 download
Dick St. Nicklaus - Magic mp3 download
Performer: Dick St. Nicklaus
Title: Magic
Country: US
Released: 1991
Style: Soft Rock
Rating: 4.2/5
Format: MP3 FLAC VOC RA AU AC3 WMA VQF DXD
FLAC size: 1688 mb | MP3 size: 1867 mb | WMA size: 1219 mb
Genre: Rock

It was 1979 that Dick St. Nicklaus's 1st album "Magic" was a kind of boom in Osaka, the second largest city of Japan located in western part of Japan, near Kyoto. Osaka has a different atmosphere and their own culture and in those days they were keen to find out some unfamiliar artists by themselves. One was Dick St. Nicklaus.

Profile: American sician born in Yakima, WA. He had worked with The Kingsmen and Lamont Dozier before starting a solo career in the late Seventies, which produced two albums for Epic. Variations: Viewing All Dick St. D. St. Nicklaus, Dick Saint Nicklaus, Dick S. Nicklaus, St.

Listen to Dick St. Nicklaus Radio featuring songs from Magic free online. Слушать бесплатное интернет-радио, спорт, музыку, новости, разговорное и подкасты. События в прямом эфире, трансляции игр NFL, MLB, NBA, NHL, университетских команд и матчи Премьер-лиги. Спорт, музыка, новости и подкасты. Слушайте аудиоконтент, который для вас наиболее важен.

It was 1979 that Dick St.

ST. NICKLAUS, DICK magic 2. P-187 ディック・セント・ニクラウス マジック. Images All product Images are sample. Sample images are used for same items.

Tracklist

1 Magic 3:38
2 Help Yourself 3:23
3 What's The Reason 4:50
4 Can't Give Up 2:52
5 Our Goodbye 4:29
6 Born To Love 3:33
7 Sad Price To Pay 5:39
8 She's My Music 5:09
9 Changing 4:20

Companies, etc.

  • Record Company – Epic/Sony Records
  • Manufactured By – Sony Music Entertainment (Japan) Inc.

Notes

91-9-1

Barcode and Other Identifiers

  • Barcode: 4 988101 539320

Other versions

Category Artist Title (Format) Label Category Country Year
JE 36178 Dick St. Nicklaus Magic ‎(LP, Promo, W/Lbl) Epic JE 36178 US 1979
JE36178, AL36178 Dick St. Nicklaus Magic ‎(LP, Promo) Epic, Epic JE36178, AL36178 USA, Canada & UK 1979
25·3P-187 Dick St. Nicklaus Magic ‎(LP, Album) Epic 25·3P-187 Japan 1979
JE 36178 Dick St. Nicklaus Magic ‎(LP, Album) Epic JE 36178 US 1979
25·3P-173 Dick St. Nicklaus Magic ‎(LP, Album) Epic 25·3P-173 Japan 1979


Comments (1)
Jake
foobar2000 1.3.17 / Dynamic Range Meter 1.1.1log date: 2019-04-30 20:35:40--------------------------------------------------------------------------------Analyzed: Dick St. Nicklaus / Magic [JP 1991 CD]--------------------------------------------------------------------------------DR Peak RMS Duration Track--------------------------------------------------------------------------------DR14 -0.67 dB -16.80 dB 3:38 01-MagicDR14 -0.93 dB -17.18 dB 3:24 02-Help YourselfDR11 -2.79 dB -19.29 dB 4:51 03-What's The ReasonDR14 -2.33 dB -18.08 dB 2:54 04-Can't Give UpDR14 -1.28 dB -18.67 dB 4:33 05-Our GoodbyeDR16 -0.10 dB -18.94 dB 3:35 06-Born To Love YouDR13 -4.06 dB -21.26 dB 5:40 07-Sad Price To PayDR14 -1.52 dB -17.62 dB 5:11 08-She's My MusicDR18 -0.51 dB -23.47 dB 4:23 09-Changing--------------------------------------------------------------------------------Number of tracks: 9Official DR value: DR14Samplerate: 44100 HzChannels: 2Bits per sample: 16Bitrate: 602 kbpsCodec: ALAC================================================================================